[HiFiMov.com]

www ঢাকা*মেয়ে*xxx cqm Videos

Home
Community
Downloads
Videos
Photos

www ঢাকা*মেয়ে*xxx cqm - Search Results
Showing 0 - 25 Of 43

টোকাই পথে ঘাটে, আবর্জনা ফেলবার স্থানে পড়ে থাকা দ্রব্য সংগ্রহকারী দরিদ্র ও ছিন্নমূল শিশু-কিশোর। খ্যাতনামা কার্টুনিস্ট রফিকুন্নবী এ টোকাই চরিত্রটি সৃষ্টি করেন। টোকাই চরিত্রের মাধ্যমে তিনি সমাজের সুবিধাবঞ্চিত শিশুদের দারিদ্র, বঞ্চনা ও নিরাপত্তাহীনতার চিত্র তুলে ধরেছেন।ঢাকা মহানগরীতে লক্ষাধিক বস্তিবাসী মানবেতর পরিস্থিতিতে জীবনযাপন করে থাকে। দারিদ্র্যপীড়িত এ সকল পরিবার তাদের শিশুদের মৌলিক চাহিদাগুলি পূরণ করতে কখনোই সক্ষম হয় না। এর পরিণতিতে বস্তির শিশুরা বাধ্য হয়ে অপরিণত বয়সে রোজগারে নামতে বাধ্য হয়। ঢাকা শহরের সাধারণ চিত্রের একটি অবিচ্ছেদ্য অংশ হয়ে আছে এ টোকাইরা। অধিকাংশ টোকাইর বয়স ৮ থেকে ১৫ বছরের মধ্যে, তবে এর অধিক বয়স গ্রুপের টোকাইও দেখতে পাওয়া যায়। সচরাচর ছেলে টোকাইদের তুলনায় মেয়ে টোকাই-এর সংখ্যা অল্প। অধিকাংশ টোকাই নিরক্ষর এবং শহরে নতুন। সাধারণত এরা বড় পরিবারের সদস্য হওয়ায় পরিবারের নিয়ন্ত্রণ বা খোঁজখবর এদের ওপর থাকে না। অধিকাংশ টোকাইরই বাবা অথবা মা নেই। কেউ কেউ তাদের পরিবার কর্তৃক পরিত্যক্তও বটে।
Tokai (টোকাই) A Film By Tashmiah Afrin Mou part 02।ᴴᴰ
\
চলচ্চিত্র অভিনেত্রী ছোট্ট দিঘী কত বড় হয়েছে দেখুন (লাইভ) | Actress Dighi
This is an educational video for all level of people in our society! Also a message to the people of Bangladesh...একি বললেন হাসিনা পুরুষেরা একটু করলেই দুর্বল হয়ে যায়।নিজ চোখে দেখুন - কিভাবে টাকা বানায় । ইন্ডিয়ার সাথে ম্যাচ শেষে যা বললেন ক্যাপ্টেন মাশরাফি। Dhaka University TSC তে মেয়েদের যৌন হয়রানির প্রতিবাদে কেউ এই অশ্লীল ভিডিওটি দেখবেন স্কুল ছাত্রীর দেহ উপভোগ। বখাটি ছেলেদের কে ধরিয়ে দিন ।সকল বিবাহিতদের জন্য এই ভিডিওটি দেখা বাধ্যতামূলক এই ভিডিও দেখলে আপনি হাঁসতে হাঁসতে মারা যেতে পারেনদুবাই এ মেয়েদের কি চাকরি দেওয়া হয় । নেশা করিয়ে স্কুল ছাত্রীর দেহ উপভোগ। সারা দুনিয়া কাঁপিয়ে বাংলাদেশের একটি গান এখন বিশ্বজুড়ে! কি সেই গান? দেখু যশোরের তমালিকার নাচ (এটাকে ওপেন সেক্স বলবো নাকি অন্য কিছু বলব…চাকরি দেয়ার কথা বলে মেয়েকে গনধর্ষণ ! (ছোটরা দেখবে না).Banglaমেয়ে দিয়ে ছেলেকে জোর পূর্বক শাারীরিক সম্পর্ক, তারপর ভিডিও করে ইন্টারনে ছেলেদের যৌনাঙ্গ কেটে হিজড়া বানানোর অবিশাস্ব্য উপায়, না দেখলে চরম মি…এই মেয়ে বলে কি মাথা ঠিক আছে নাকি যদি আওয়ামীলীগে পায় খবর আছে ।বখাটি ছেলেদের কে ধরিয়ে দিন ।যৌন মিলনের চরম মুহুর্তে মেয়েরা কিভাবে ছেলেদের বীর্যপাত করাতে পারে,যুবতী বান্ধবীর সাথে যৌনমিলন,মেয়েরা যেভাবে হাত দিয়ে হস্তমৈথুন করে দেখুন বাস্তব চিত্র !মেয়েদের যোনি চোষার বিষয়ে কিছু তথ্য,,দেখুন মেয়েদের হস্তমৈথুন কতটা ক্ষতিকর,মেয়েরা যেভাবে হাত দিয়ে হস্তমৈথুন,যুবতী বান্ধবীর সাথে যৌনমিলন,এই শালার পাশী দেওয়া উচিৎ বাংলা চুদাচুদি। Ekusher Chokh (একুশের চোখ ) Bangla crime Documentary,গোপন যৌনাঙ্গ সমস্যা সমাধান, নায়িকা হতে গিয়ে দেহ বিসর্জন,নারী ও নেশার রমরমা ব্যাবসা চলছে মাজার গুলোতে,দেখুন নোয়াখালি কলেজের মেয়ে কি করল। রাতে ঢাকা শহরের দেহ ব্যাবসার রমরমা চিত্র,গোপন যৌনাঙ্গ সমস্যা সমাধান, রূপকথায় আলাদিনের চেরাগের গল্প,মোবাইল কোম্পানীর প্রতারনা, ফকির বাবার আস্তানা,একুশের চোখ শিকল বাবা P2,এনার্জি ড্রিঙ্কসের নেপথ্যে,স্বামী মিশু দ্বারা নিহত,একুশের চোখ রূপকথায় আলাদিনের চেরাগের গল্প,মোবাইল কোম্পানীর প্রতারনা,ফকির বাবার আস্তানা,একুশের চোখ শিকল বাবা P2এনার্জি ড্রিঙ্কসের নেপথ্যে,স্বামী মিশু দ্বারা নিহত,বিভিন্ন কলেজ বিশ্ববিদ্যালয়ের মেয়েরাও জড়াচ্ছেন দেহ ব্যবসায় ভণ্ড বিড়ি বাবা । তার কাছে ৭-৮ দিন থাকলেই নাকি মিলবে সন্তান । একুশের আওয়ামী মন্ত্রীকে সরাসরি বেয়াদব বললেন এই সাহসী মওলানা৷একুশের চোখ (০২/০১/১৪), একুশের চোখ- (১৩/০৯/১৩)New Bangla Waz\
শেখ হাসিনা কোন পীরের মুরিদ আসুন জেনে নেই!
This is an educational video for all level of people in our society! Also a message to the people of Bangladesh...একি বললেন হাসিনা পুরুষেরা একটু করলেই দুর্বল হয়ে যায়।নিজ চোখে দেখুন - কিভাবে টাকা বানায় । ইন্ডিয়ার সাথে ম্যাচ শেষে যা বললেন ক্যাপ্টেন মাশরাফি। Dhaka University TSC তে মেয়েদের যৌন হয়রানির প্রতিবাদে কেউ এই অশ্লীল ভিডিওটি দেখবেন স্কুল ছাত্রীর দেহ উপভোগ। বখাটি ছেলেদের কে ধরিয়ে দিন ।সকল বিবাহিতদের জন্য এই ভিডিওটি দেখা বাধ্যতামূলক এই ভিডিও দেখলে আপনি হাঁসতে হাঁসতে মারা যেতে পারেনদুবাই এ মেয়েদের কি চাকরি দেওয়া হয় । নেশা করিয়ে স্কুল ছাত্রীর দেহ উপভোগ। সারা দুনিয়া কাঁপিয়ে বাংলাদেশের একটি গান এখন বিশ্বজুড়ে! কি সেই গান? দেখু যশোরের তমালিকার নাচ (এটাকে ওপেন সেক্স বলবো নাকি অন্য কিছু বলব…চাকরি দেয়ার কথা বলে মেয়েকে গনধর্ষণ ! (ছোটরা দেখবে না).Banglaমেয়ে দিয়ে ছেলেকে জোর পূর্বক শাারীরিক সম্পর্ক, তারপর ভিডিও করে ইন্টারনে ছেলেদের যৌনাঙ্গ কেটে হিজড়া বানানোর অবিশাস্ব্য উপায়, না দেখলে চরম মি…এই মেয়ে বলে কি মাথা ঠিক আছে নাকি যদি আওয়ামীলীগে পায় খবর আছে ।বখাটি ছেলেদের কে ধরিয়ে দিন ।যৌন মিলনের চরম মুহুর্তে মেয়েরা কিভাবে ছেলেদের বীর্যপাত করাতে পারে,যুবতী বান্ধবীর সাথে যৌনমিলন,মেয়েরা যেভাবে হাত দিয়ে হস্তমৈথুন করে দেখুন বাস্তব চিত্র !মেয়েদের যোনি চোষার বিষয়ে কিছু তথ্য,,দেখুন মেয়েদের হস্তমৈথুন কতটা ক্ষতিকর,মেয়েরা যেভাবে হাত দিয়ে হস্তমৈথুন,যুবতী বান্ধবীর সাথে যৌনমিলন,এই শালার পাশী দেওয়া উচিৎ বাংলা চুদাচুদি। Ekusher Chokh (একুশের চোখ ) Bangla crime Documentary,গোপন যৌনাঙ্গ সমস্যা সমাধান, নায়িকা হতে গিয়ে দেহ বিসর্জন,নারী ও নেশার রমরমা ব্যাবসা চলছে মাজার গুলোতে,দেখুন নোয়াখালি কলেজের মেয়ে কি করল। রাতে ঢাকা শহরের দেহ ব্যাবসার রমরমা চিত্র,গোপন যৌনাঙ্গ সমস্যা সমাধান, রূপকথায় আলাদিনের চেরাগের গল্প,মোবাইল কোম্পানীর প্রতারনা, ফকির বাবার আস্তানা,একুশের চোখ শিকল বাবা P2,এনার্জি ড্রিঙ্কসের নেপথ্যে,স্বামী মিশু দ্বারা নিহত,একুশের চোখ রূপকথায় আলাদিনের চেরাগের গল্প,মোবাইল কোম্পানীর প্রতারনা,ফকির বাবার আস্তানা,একুশের চোখ শিকল বাবা P2এনার্জি ড্রিঙ্কসের নেপথ্যে,স্বামী মিশু দ্বারা নিহত,বিভিন্ন কলেজ বিশ্ববিদ্যালয়ের মেয়েরাও জড়াচ্ছেন দেহ ব্যবসায় ভণ্ড বিড়ি বাবা । তার কাছে ৭-৮ দিন থাকলেই নাকি মিলবে সন্তান । একুশের আওয়ামী মন্ত্রীকে সরাসরি বেয়াদব বললেন এই সাহসী মওলানা৷একুশের চোখ (০২/০১/১৪), একুশের চোখ- (১৩/০৯/১৩)New Bangla Waz\
ল্যাংটা পীরের মাজারে গিয়ে স্বামীকে স্ত্রী বলছে, এ তো'দেখি একেবারে ল্যাংটা
This is an educational video for all level of people in our society! Also a message to the people of Bangladesh...একি বললেন হাসিনা পুরুষেরা একটু করলেই দুর্বল হয়ে যায়।নিজ চোখে দেখুন - কিভাবে টাকা বানায় । ইন্ডিয়ার সাথে ম্যাচ শেষে যা বললেন ক্যাপ্টেন মাশরাফি। Dhaka University TSC তে মেয়েদের যৌন হয়রানির প্রতিবাদে কেউ এই অশ্লীল ভিডিওটি দেখবেন স্কুল ছাত্রীর দেহ উপভোগ। বখাটি ছেলেদের কে ধরিয়ে দিন ।সকল বিবাহিতদের জন্য এই ভিডিওটি দেখা বাধ্যতামূলক এই ভিডিও দেখলে আপনি হাঁসতে হাঁসতে মারা যেতে পারেনদুবাই এ মেয়েদের কি চাকরি দেওয়া হয় । নেশা করিয়ে স্কুল ছাত্রীর দেহ উপভোগ। সারা দুনিয়া কাঁপিয়ে বাংলাদেশের একটি গান এখন বিশ্বজুড়ে! কি সেই গান? দেখু যশোরের তমালিকার নাচ (এটাকে ওপেন সেক্স বলবো নাকি অন্য কিছু বলব…চাকরি দেয়ার কথা বলে মেয়েকে গনধর্ষণ ! (ছোটরা দেখবে না).Banglaমেয়ে দিয়ে ছেলেকে জোর পূর্বক শাারীরিক সম্পর্ক, তারপর ভিডিও করে ইন্টারনে ছেলেদের যৌনাঙ্গ কেটে হিজড়া বানানোর অবিশাস্ব্য উপায়, না দেখলে চরম মি…এই মেয়ে বলে কি মাথা ঠিক আছে নাকি যদি আওয়ামীলীগে পায় খবর আছে ।বখাটি ছেলেদের কে ধরিয়ে দিন ।যৌন মিলনের চরম মুহুর্তে মেয়েরা কিভাবে ছেলেদের বীর্যপাত করাতে পারে,যুবতী বান্ধবীর সাথে যৌনমিলন,মেয়েরা যেভাবে হাত দিয়ে হস্তমৈথুন করে দেখুন বাস্তব চিত্র !মেয়েদের যোনি চোষার বিষয়ে কিছু তথ্য,,দেখুন মেয়েদের হস্তমৈথুন কতটা ক্ষতিকর,মেয়েরা যেভাবে হাত দিয়ে হস্তমৈথুন,যুবতী বান্ধবীর সাথে যৌনমিলন,এই শালার পাশী দেওয়া উচিৎ বাংলা চুদাচুদি। Ekusher Chokh (একুশের চোখ ) Bangla crime Documentary,গোপন যৌনাঙ্গ সমস্যা সমাধান, নায়িকা হতে গিয়ে দেহ বিসর্জন,নারী ও নেশার রমরমা ব্যাবসা চলছে মাজার গুলোতে,দেখুন নোয়াখালি কলেজের মেয়ে কি করল। রাতে ঢাকা শহরের দেহ ব্যাবসার রমরমা চিত্র,গোপন যৌনাঙ্গ সমস্যা সমাধান, রূপকথায় আলাদিনের চেরাগের গল্প,মোবাইল কোম্পানীর প্রতারনা, ফকির বাবার আস্তানা,একুশের চোখ শিকল বাবা P2,এনার্জি ড্রিঙ্কসের নেপথ্যে,স্বামী মিশু দ্বারা নিহত,একুশের চোখ রূপকথায় আলাদিনের চেরাগের গল্প,মোবাইল কোম্পানীর প্রতারনা,ফকির বাবার আস্তানা,একুশের চোখ শিকল বাবা P2এনার্জি ড্রিঙ্কসের নেপথ্যে,স্বামী মিশু দ্বারা নিহত,বিভিন্ন কলেজ বিশ্ববিদ্যালয়ের মেয়েরাও জড়াচ্ছেন দেহ ব্যবসায় ভণ্ড বিড়ি বাবা । তার কাছে ৭-৮ দিন থাকলেই নাকি মিলবে সন্তান । একুশের আওয়ামী মন্ত্রীকে সরাসরি বেয়াদব বললেন এই সাহসী মওলানা৷একুশের চোখ (০২/০১/১৪), একুশের চোখ- (১৩/০৯/১৩)New Bangla Waz\
পীরের মাজারে গিয়ে স্বামীকে স্ত্রী বলছে, এ তো'দেখি একেবারে ২
http://www.nicovideo.jp/watch/sm32170976i am not own thishttp://www.nicovideo.jp/search/%E8%B8%8A%E3%81%A3%E3%81%A6%E3%81%BF%E3%81%9F?sort=fmd-Video: MPEG4 Video (H264) 1920x1080 29.97fps 3371kbps [V: L-SMASH Video Handler (h264 high L4.0, yuv420p, 1920x1080, 3371 kb/s)]Audio: AAC 48000Hz stereo 120kbps [A: L-SMASH Audio Handler (aac lc, 48000 Hz, stereo, 120 kb/s)] [A: SoundHandler (aac lc, 48000 Hz, stereo, 120 kb/s)]GeneralComplete name: http://www.nicovideo.jp/watch/sm32170976 --\\【ふぇありぃずぅ】シャルル【踊ってみた】smile.mp4Format : MPEG-4Format profile : Base MediaCodec ID : isom (isom)File size: 99.2 MiBDuration : 3 min 58 sOverall bit rate mode: VariableOverall bit rate : 3 495 kb/sEncoded date : UTC 2017-10-27 15:55:37Tagged date: UTC 2017-10-27 15:55:37Copyright: SMILEVIDEO_MP4Writing application: Lavf57.29.101Copyright: xxx - Copyright: SMILEVIDEO_MP4Comment: xxx - Copyright: SMILEVIDEO_MP4VideoID : 1Format : AVCFormat/Info: Advanced Video CodecFormat profile : High@L4Format settings: CABAC / 4 Ref FramesFormat settings, CABAC : YesFormat settings, RefFrames : 4 framesCodec ID : avc1Codec ID/Info: Advanced Video CodingDuration : 3 min 58 sBit rate : 3 361 kb/sMaximum bit rate : 6 829 kb/sWidth: 1 920 pixelsHeight : 1 080 pixelsDisplay aspect ratio : 16:9Frame rate mode: ConstantFrame rate : 29.970 (30000/1001) FPSColor space: YUVChroma subsampling : 4:2:0Bit depth: 8 bitsScan type: ProgressiveBits/(Pixel*Frame) : 0.054Stream size: 95.6 MiB (96%)Writing library: x264 core 148 r2762 90a61ecEncoding settings: cabac=1 / ref=3 / deblock=1:0:0 / analyse=0x3:0x113 / me=hex / subme=7 / psy=1 / psy_rd=1.00:0.00 / mixed_ref=1 / me_range=16 / chroma_me=1 / trellis=1 / 8x8dct=1 / cqm=0 / deadzone=21,11 / fast_pskip=1 / chroma_qp_offset=-2 / threads=12 / lookahead_threads=2 / sliced_threads=0 / nr=0 / decimate=1 / interlaced=0 / bluray_compat=0 / constrained_intra=0 / bframes=3 / b_pyramid=2 / b_adapt=1 / b_bias=0 / direct=1 / weightb=1 / open_gop=0 / weightp=2 / keyint=250 / keyint_min=25 / scenecut=40 / intra_refresh=0 / rc_lookahead=40 / rc=abr / mbtree=1 / bitrate=3361 / ratetol=1.0 / qcomp=0.60 / qpmin=0 / qpmax=69 / qpstep=4 / ip_ratio=1.40 / aq=1:1.00Encoded date : UTC 2017-10-25 08:30:58Tagged date: UTC 2017-10-27 15:55:37AudioID : 2Format : AACFormat/Info: Advanced Audio CodecFormat profile : LCCodec ID : mp4a-40-2Duration : 3 min 58 sBit rate mode: VariableBit rate : 120 kb/sMaximum bit rate : 168 kb/sChannel(s) : 2 channelsChannel positions: Front: L RSampling rate: 48.0 kHzFrame rate : 46.875 FPS (1024 SPF)Compression mode : LossyStream size: 3.42 MiB (3%)Encoded date : UTC 2017-10-25 08:30:58Tagged date: UTC 2017-10-27 15:55:37ccc:www.dailymotion.com/video/x63sh6f-updated-
【ふぇありぃずぅ】シャルル【踊ってみた】

টোকাই পথে ঘাটে, আবর্জনা ফেলবার স্থানে পড়ে থাকা দ্রব্য সংগ্রহকারী দরিদ্র ও ছিন্নমূল শিশু-কিশোর। খ্যাতনামা কার্টুনিস্ট রফিকুন্নবী এ টোকাই চরিত্রটি সৃষ্টি করেন। টোকাই চরিত্রের মাধ্যমে তিনি সমাজের সুবিধাবঞ্চিত শিশুদের দারিদ্র, বঞ্চনা ও নিরাপত্তাহীনতার চিত্র তুলে ধরেছেন।ঢাকা মহানগরীতে লক্ষাধিক বস্তিবাসী মানবেতর পরিস্থিতিতে জীবনযাপন করে থাকে। দারিদ্র্যপীড়িত এ সকল পরিবার তাদের শিশুদের মৌলিক চাহিদাগুলি পূরণ করতে কখনোই সক্ষম হয় না। এর পরিণতিতে বস্তির শিশুরা বাধ্য হয়ে অপরিণত বয়সে রোজগারে নামতে বাধ্য হয়। ঢাকা শহরের সাধারণ চিত্রের একটি অবিচ্ছেদ্য অংশ হয়ে আছে এ টোকাইরা। অধিকাংশ টোকাইর বয়স ৮ থেকে ১৫ বছরের মধ্যে, তবে এর অধিক বয়স গ্রুপের টোকাইও দেখতে পাওয়া যায়। সচরাচর ছেলে টোকাইদের তুলনায় মেয়ে টোকাই-এর সংখ্যা অল্প। অধিকাংশ টোকাই নিরক্ষর এবং শহরে নতুন। সাধারণত এরা বড় পরিবারের সদস্য হওয়ায় পরিবারের নিয়ন্ত্রণ বা খোঁজখবর এদের ওপর থাকে না। অধিকাংশ টোকাইরই বাবা অথবা মা নেই। কেউ কেউ তাদের পরিবার কর্তৃক পরিত্যক্তও বটে।
Tokai (টোকাই) A Film By Tashmiah Afrin Mou part 01।ᴴᴰ
This is an educational video for all level of people in our society! Also a message to the people of Bangladesh..ভন্ড কুতুববাগী কিভাবে ধরা খাইছে দেখুনগরিব নিরীহ মানুষের রক্ত চোষা কুতুববাগী পীর.একি বললেন হাসিনা পুরুষেরা একটু করলেই দুর্বল হয়ে যায়।নিজ চোখে দেখুন - কিভাবে টাকা বানায় । ইন্ডিয়ার সাথে ম্যাচ শেষে যা বললেন ক্যাপ্টেন মাশরাফি। Dhaka University TSC তে মেয়েদের যৌন হয়রানির প্রতিবাদে কেউ এই অশ্লীল ভিডিওটি দেখবেন স্কুল ছাত্রীর দেহ উপভোগ। বখাটি ছেলেদের কে ধরিয়ে দিন ।সকল বিবাহিতদের জন্য এই ভিডিওটি দেখা বাধ্যতামূলক এই ভিডিও দেখলে আপনি হাঁসতে হাঁসতে মারা যেতে পারেনদুবাই এ মেয়েদের কি চাকরি দেওয়া হয় । নেশা করিয়ে স্কুল ছাত্রীর দেহ উপভোগ। সারা দুনিয়া কাঁপিয়ে বাংলাদেশের একটি গান এখন বিশ্বজুড়ে! কি সেই গান? দেখু যশোরের তমালিকার নাচ (এটাকে ওপেন সেক্স বলবো নাকি অন্য কিছু চাকরি দেয়ার কথা বলে মেয়েকে গনধর্ষণ ! (ছোটরা দেখবে না).Banglaমেয়ে দিয়ে ছেলেকে জোর পূর্বক শাারীরিক সম্পর্ক, তারপর ভিডিও ছেলেদের যৌনাঙ্গ কেটে হিজড়া বানানোর অবিশাস্ব্য উপায়, না দেখলে চরম মি…এই মেয়ে বলে কি মাথা ঠিক আছে নাকি যদি আওয়ামীলীগে পায় খবর আছে ।বখাটি ছেলেদের কে ধরিয়ে দিন ।যৌন মিলনের চরম মুহুর্তে মেয়েরা কিভাবে ছেলেদের বীর্যপাত করাতে পারে,যুবতী বান্ধবীর সাথে যৌনমিলন,মেয়েরা যেভাবে হাত দিয়ে হস্তমৈথুন করে মেয়েদের যোনি চোষার বিষয়ে কিছু তথ্য,,দেখুন মেয়েদের হস্তমৈথুন কতটা ক্ষতিকর,মেয়েরা যেভাবে হাত দিয়ে হস্তমৈথুন,যুবতী বান্ধবীর সাথে যৌনমিলন,এই শালার পাশী দেওয়া উচিৎ বাংলা চুদাচুদি। Ekusher Chokh (একুশের চোখ ) Bangla crime Documentary,গোপন যৌনাঙ্গ সমস্যা সমাধান, নায়িকা হতে গিয়ে দেহ বিসর্জন,নারী ও নেশার রমরমা ব্যাবসা চলছে মাজার গুলোতে,দেখুন নোয়াখালি কলেজের মেয়ে কি করল। রাতে ঢাকা শহরের দেহ ব্যাবসার রমরমা চিত্র,গোপন যৌনাঙ্গ সমস্যা সমাধান, রূপকথায় আলাদিনের চেরাগের গল্প,মোবাইল কোম্পানীর প্রতারনা, ফকির বাবার আস্তানা,একুশের চোখ শিকল বাবা P2,এনার্জি ড্রিঙ্কসের নেপথ্যে,স্বামী মিশু দ্বারা নিহত,একুশের চোখ রূপকথায় আলাদিনের চেরাগের গল্প,মোবাইল কোম্পানীর প্রতারনা,ফকির বাবার আস্তানা,একুশের চোখ শিকল বাবা P2এনার্জি ড্রিঙ্কসের নেপথ্যে,স্বামী মিশু দ্বারা নিহত,বিভিন্ন কলেজ বিশ্ববিদ্যালয়ের মেয়েরাও জড়াচ্ছেন দেহ ব্যবসায় ভণ্ড বিড়ি বাবা । তার কাছে ৭-৮ দিন থাকলেই নাকি মিলবে সন্তান । একুশের আওয়ামী মন্ত্রীকে সরাসরি বেয়াদব বললেন এই সাহসী মওলানা৷New Bangla Waz\
কুতুববাগী ভন্ড কিভাবে ধরা খাইছে নিজ চোখেই দেখুন
This is an educational video for all level of people in our society! Also a message to the people of Bangladesh...একি বললেন হাসিনা পুরুষেরা একটু করলেই দুর্বল হয়ে যায়।নিজ চোখে দেখুন - কিভাবে টাকা বানায় । ইন্ডিয়ার সাথে ম্যাচ শেষে যা বললেন ক্যাপ্টেন মাশরাফি। Dhaka University TSC তে মেয়েদের যৌন হয়রানির প্রতিবাদে কেউ এই অশ্লীল ভিডিওটি দেখবেন স্কুল ছাত্রীর দেহ উপভোগ। বখাটি ছেলেদের কে ধরিয়ে দিন ।সকল বিবাহিতদের জন্য এই ভিডিওটি দেখা বাধ্যতামূলক এই ভিডিও দেখলে আপনি হাঁসতে হাঁসতে মারা যেতে পারেনদুবাই এ মেয়েদের কি চাকরি দেওয়া হয় । নেশা করিয়ে স্কুল ছাত্রীর দেহ উপভোগ। সারা দুনিয়া কাঁপিয়ে বাংলাদেশের একটি গান এখন বিশ্বজুড়ে! কি সেই গান? দেখু যশোরের তমালিকার নাচ (এটাকে ওপেন সেক্স বলবো নাকি অন্য কিছু বলব…চাকরি দেয়ার কথা বলে মেয়েকে গনধর্ষণ ! (ছোটরা দেখবে না).Banglaমেয়ে দিয়ে ছেলেকে জোর পূর্বক শাারীরিক সম্পর্ক, তারপর ভিডিও করে ইন্টারনে ছেলেদের যৌনাঙ্গ কেটে হিজড়া বানানোর অবিশাস্ব্য উপায়, না দেখলে চরম মি…এই মেয়ে বলে কি মাথা ঠিক আছে নাকি যদি আওয়ামীলীগে পায় খবর আছে ।বখাটি ছেলেদের কে ধরিয়ে দিন ।যৌন মিলনের চরম মুহুর্তে মেয়েরা কিভাবে ছেলেদের বীর্যপাত করাতে পারে,যুবতী বান্ধবীর সাথে যৌনমিলন,মেয়েরা যেভাবে হাত দিয়ে হস্তমৈথুন করে দেখুন বাস্তব চিত্র !মেয়েদের যোনি চোষার বিষয়ে কিছু তথ্য,,দেখুন মেয়েদের হস্তমৈথুন কতটা ক্ষতিকর,মেয়েরা যেভাবে হাত দিয়ে হস্তমৈথুন,যুবতী বান্ধবীর সাথে যৌনমিলন,এই শালার পাশী দেওয়া উচিৎ বাংলা চুদাচুদি। Ekusher Chokh (একুশের চোখ ) Bangla crime Documentary,গোপন যৌনাঙ্গ সমস্যা সমাধান, নায়িকা হতে গিয়ে দেহ বিসর্জন,নারী ও নেশার রমরমা ব্যাবসা চলছে মাজার গুলোতে,দেখুন নোয়াখালি কলেজের মেয়ে কি করল। রাতে ঢাকা শহরের দেহ ব্যাবসার রমরমা চিত্র,গোপন যৌনাঙ্গ সমস্যা সমাধান, রূপকথায় আলাদিনের চেরাগের গল্প,মোবাইল কোম্পানীর প্রতারনা, ফকির বাবার আস্তানা,একুশের চোখ শিকল বাবা P2,এনার্জি ড্রিঙ্কসের নেপথ্যে,স্বামী মিশু দ্বারা নিহত,একুশের চোখ রূপকথায় আলাদিনের চেরাগের গল্প,মোবাইল কোম্পানীর প্রতারনা,ফকির বাবার আস্তানা,একুশের চোখ শিকল বাবা P2এনার্জি ড্রিঙ্কসের নেপথ্যে,স্বামী মিশু দ্বারা নিহত,বিভিন্ন কলেজ বিশ্ববিদ্যালয়ের মেয়েরাও জড়াচ্ছেন দেহ ব্যবসায় ভণ্ড বিড়ি বাবা । তার কাছে ৭-৮ দিন থাকলেই নাকি মিলবে সন্তান । একুশের আওয়ামী মন্ত্রীকে সরাসরি বেয়াদব বললেন এই সাহসী মওলানা৷একুশের চোখ (০২/০১/১৪), একুশের চোখ- (১৩/০৯/১৩)New Bangla Waz\
জাকির নায়েকের মেসেজ-বাংলাদেশ,পাকিস্তান এবং ইন্ডিয়ার জন্য
This is an educational video for all level of people in our society! Also a message to the people of Bangladesh..চরমনাই পীরের ত্বরিকা (সম্পুর্ণ)-শায়খ মতিউর রহমান মাদানীচরমুনাই পীরের ভন্ডামী জিকিরপীরের মাজারে গিয়ে স্বামীকে স্ত্রী বলছে, এ তো'দেখি একেবারেশুনুন ছোট একটি কাহিনী আর সবচেয়ে বড় পাপের কথা ! পীরানের পীর দাশ্তগীর আবদুল কাদির জিলানি নামের ইতিহাস চরমোনাই পীরের মুরিদের কান্ড দেখুনচরমনাইর পীরেরা কিভাবে জাহাজ বোঝাই করে মুরিদদেরকে জান্নাতে হক্কানী পীরের ব্যাখ্যা-আলোচক আব্দুর রহিম সালাফীচরমোনাই পীর সাহেবের কুতুবএর শিরকি আকীদাচরমোনাই পীর বলে আল্লাহ্র আন্দাজ নাই, (নাউযুবিল্লাহী মিন যালিক) - শায়খ আব্দুর রহিম বাগেরহাটআহমদ শফী,ফুলতলী, দেওবন্দী,বেরলবী-রেজবী,চরমনাই,ইলিয়াসি তাবলীগ একই গোদামের মাল! চরমোনাই পীরজাদার কেরামতি ফাস।যার পীর নাই তার পীর শয়তান এই ইবলিশী কথার মর্ম কি-যার পীর নাই, তার পীর শইতান। কথাটি কি সঠিক- Prof. Mufti Kazi Ibrahimপ্রথমে স্বঘোষিত হক্কানী পীর চরমনাইর মিথ্যা কাল্পনিক ইসলাম বিরোধী ওয়াজ শুনুনএকি বললেন হাসিনা পুরুষেরা একটু করলেই দুর্বল হয়ে যায়।নিজ চোখে দেখুন - কিভাবে টাকা বানায় । ইন্ডিয়ার সাথে ম্যাচ শেষে যা বললেন ক্যাপ্টেন মাশরাফি। Dhaka University TSC তে মেয়েদের যৌন হয়রানির প্রতিবাদে কেউ এই অশ্লীল ভিডিওটি দেখবেন স্কুল ছাত্রীর দেহ উপভোগ। বখাটি ছেলেদের কে ধরিয়ে দিন ।সকল বিবাহিতদের জন্য এই ভিডিওটি দেখা বাধ্যতামূলক এই ভিডিও দেখলে আপনি হাঁসতে হাঁসতে মারা যেতে পারেনদুবাই এ মেয়েদের কি চাকরি দেওয়া হয় । নেশা করিয়ে স্কুল ছাত্রীর দেহ উপভোগ। সারা দুনিয়া কাঁপিয়ে বাংলাদেশের একটি গান এখন বিশ্বজুড়ে! কি সেই গান? দেখু যশোরের তমালিকার নাচ (এটাকে ওপেন সেক্স বলবো নাকি অন্য কিছু বলব…চাকরি দেয়ার কথা বলে মেয়েকে গনধর্ষণ ! (ছোটরা দেখবে না).Banglaমেয়ে দিয়ে ছেলেকে জোর পূর্বক শাারীরিক সম্পর্ক, তারপর ভিডিও করে ইন্টারনে ছেলেদের যৌনাঙ্গ কেটে হিজড়া বানানোর অবিশাস্ব্য উপায়, না দেখলে চরম মি…এই মেয়ে বলে কি মাথা ঠিক আছে নাকি যদি আওয়ামীলীগে পায় খবর আছে ।বখাটি ছেলেদের কে ধরিয়ে দিন ।যৌন মিলনের চরম মুহুর্তে মেয়েরা কিভাবে ছেলেদের বীর্যপাত করাতে পারে,যুবতী বান্ধবীর সাথে যৌনমিলন,মেয়েরা যেভাবে হাত দিয়ে হস্তমৈথুন করে দেখুন বাস্তব চিত্র !মেয়েদের যোনি চোষার বিষয়ে কিছু তথ্য,,দেখুন মেয়েদের হস্তমৈথুন কতটা ক্ষতিকর,মেয়েরা যেভাবে হাত দিয়ে হস্তমৈথুন,যুবতী বান্ধবীর সাথে যৌনমিলন,এই শালার পাশী দেওয়া উচিৎ বাংলা চুদাচুদি। Ekusher Chokh (একুশের চোখ ) Bangla crime Documentary,গোপন যৌনাঙ্গ সমস্যা সমাধান, নায়িকা হতে গিয়ে দেহ বিসর্জন,নারী ও নেশার রমরমা ব্যাবসা চলছে মাজার গুলোতে,দেখুন নোয়াখালি কলেজের মেয়ে কি করল। রাতে ঢাকা শহরের দেহ ব্যাবসার রমরমা চিত্র,গোপন যৌনাঙ্গ সমস্যা সমাধান, রূপকথায় আলাদিনের চেরাগের গল্প,মোবাইল কোম্পানীর প্রতারনা, ফকির বাবার আস্তানা,একুশের চোখ শিকল বাবা P2,এনার্জি ড্রিঙ্কসের নেপথ্যে,স্বামী মিশু দ্বারা নিহত,একুশের চোখ রূপকথায় আলাদিনের চেরাগের গল্প,মোবাইল কোম্পানীর প্রতারনা,ফকির বাবার আস্তানা,একুশের চোখ শিকল বাবা P2এনার্জি ড্রিঙ্কসের নেপথ্যে,স্বামী মিশু দ্বারা নিহত,বিভিন্ন কলেজ বিশ্ববিদ্যালয়ের মেয়েরাও জড়াচ্ছেন দেহ ব্যবসায় ভণ্ড বিড়ি বাবা । তার কাছে ৭-৮ দিন থাকলেই নাকি মিলবে সন্তান । একুশের আওয়ামী মন্ত্রীকে সরাসরি বেয়াদব বললেন এই সাহসী New Bangla Waz\
চরমনাই এর বই এ- পীরতন্র সুফিবাদ এর'শিরকি আকীদা
বারী সিদ্দিকী যেভাবে মারা গেলেন জানলে অভাক হবেন -হায়রে জীবন মানুষের ►Subscribe Our Channel:►Like Our Facebook Page: ►Visit Our Blog Site : ►Follow Us Google+ প্রখ্যাত সংগীতশিল্পী ও বংশীবাদক বারী সিদ্দিকী আর নেই। বৃহস্পতিবার দিবাগত রাত ২টা নাগাদ রাজধানীর স্কয়ার হাসপাতালে তিনি মারা যান। তাঁর বয়স হয়েছিল ৬৩ বছর। তিনি স্ত্রী, দুই ছেলে, এক মেয়ে আর অসংখ্য গুণগ্রাহী রেখে গেছেন। বারী সিদ্দিকী বাংলাদেশ টেলিভিশনে সংগীত পরিচালক ও মুখ্য বাদ্যযন্ত্রশিল্পী হিসেবে কর্মরত ছিলেন।বড় ছেলে সাব্বির সিদ্দিকী প্রথম আলোকে জানান, বারী সিদ্দিকীকে দাফন করানোর জন্য রাতেই মোহাম্মদপুরে আঞ্জুমানে মফিদুল ইসলামে নিয়ে যাওয়া হয়। সেখান থেকে মরদেহ শুক্রবার সকাল ৭টায় ধানমন্ডি ১৪/এ সড়কে তাঁর বাসায় নিয়ে যাওয়া হবে। সকাল সাড়ে ৯টায় ঢাকা বিশ্ববিদ্যালয় কেন্দ্রীয় জামে মসজিদে বারী সিদ্দিকীর প্রথম জানাজা হবে, সকাল সাড়ে ১০টায় বাংলাদেশ টেলিভিশন ভবনে দ্বিতীয় জানাজা হবে। বাদ আসর তৃতীয় ও শেষ জানাজা হবে নেত্রকোনা সরকারি কলেজে। এরপর বারী সিদ্দিকীকে নেত্রকোনার কারলি গ্রামে ‘বাউল বাড়ি’তে দাফন করা হবে।বারী সিদ্দিকী দুই বছর ধরে কিডনি সমস্যায় ভুগছিলেন। তাঁর দুটি কিডনি অকার্যকর ছিল। তিনি বহুমূত্র রোগেও ভুগছিলেন। গত ১৭ নভেম্বর রাতে তিনি হৃদরোগে আক্রান্ত হন। এরপর তাঁকে হাসপাতালে নিয়ে আসা হয়, তখন তিনি অচেতন ছিলেন। তাঁকে দ্রুত নিবিড় পরিচর্যাকেন্দ্রে (আইসিইউ) ভর্তি করা হয়। ►Email me For business inquiries or Copyright issues only at:taukirahmed1@gmail.com►( If you have any problem with the content on this channel then email me, it will be removed within 24 hours ) let us keep each other happy :)►Subscribe to the Channel to Get Updates on New Videos Regularly.Like Love, Like, and Comment will be Shared.Thanks for Having Us.
বারী সিদ্দিকী যেভাবে মারা গেলেন জানলে অভাক হবেন -হায়রে জীবন মানুষের
ইজি বাইকের চালকের আসনের ঠিক পেছনেই যাত্রীদের বসার দুইটি আসন থাকে। কিন্তু এই দুই আসনের মাঝে ছোট একটি ফাকা, যার ঠিক নীচেই মটরটি থাকে। এই আসনগুলোয় কোন মেয়ে বসলে তার ওড়না, চাদর ফাকা দিয়ে নীচে নেমে মটরে পেঁচিয়ে যায়। এক মুহূর্ত আগেও হয়তো সে গল্প করছিল, পরের মুহূর্তেই সে আজীবনের জন্য পঙ্গু হয়ে গেল। এর ভয়াবহতা অনেক বেশী।''তিনি জানালেন, এ পর্যন্ত সিআরপিতে এরকম ত্রিশ জন রোগী এসেছে। কিন্তু বাস্তবে এই সংখ্যা আরো বেশি হবে বলেই তাদের ধারণা। কারণ প্রত্যন্ত এলাকাগুলোয় কেউ মারা গেলে সেটার হয়তো খবরও হয়না। ছোটখাটো আহতরাও ঢাকা বা সিআরপিতে আসেনা।বাংলাদেশে গত কয়েকবছর ধরে ইজি বাইক নামের ব্যাটারিচালিত তিনচাকার যানগুলোর চলাচল শুরু হয়েছে। চীন থেকে আমদানি করা এসব যান মূলত বড় শহরগুলোর বাইরে চলাচল করলেও, সরকারি কোন দপ্তরই এসব যানের নিবন্ধন বা চলাচলের তদারকি করে না। ফলে এ ধরণের যানের নিরাপত্তার বিষয়টি রয়ে গেছে উপেক্ষিত।অনেক ইজিবাইকে এই ফাকাটি আলাদাভাবে ঝালাই করে বন্ধ করে দেয়া হলেও বেশিরভাগ বাইকেই ফাঁকাটি খোলা।
নারীদের জন্য 'ইজি বাইক' যেন মরণ ফাঁদ!
এই মুহুর্তে আমরা যে কৌশল দেখবো বা আয়ত্ব করবো তাহলো আমাদের পেজের ৩১ নং কৌশল । এটা মূলত একটা ডকুমেন্টারী ফ্লিমের উল্লেখযোগ্য অংশ । এটাতে কি আছে তা দেখার আগে আপনাদের সাথে আমার কিছু অভিজ্ঞতা শেয়ার করে নিচ্ছি । ১ম অভিজ্ঞতা : আমি ঢাকার নীলক্ষেতে একটা কাজে রাত ১০ টার দিকে অবস্হান করছিলাম । গাউছিয়া মার্কেটের কাছে এসে এক আপুর আত্মচিৎকার শুনলাম । আর আপুটি একটা ছেলেকে উদ্দেশ্য করে বলছে : এই ছেলে আমার গায়ে হাত দিয়েছে । বাকী বিবরণ আমি দিচ্ছি না । গায়ে হাত দেওয়া বলতে তিনি কি বুঝাতে চাচ্ছেন তা আপনারা আজকের আত্মরক্ষা কৌশল দেখলেই বুঝতে পারবেন । আর এধরনের গায়ে হাত দিলে কীভাবে গায়ে হাত দেওয়া পশুদের কাবু করবেন তা দেখতে পাবেন - এই ভিডিও বা কৌশলটায় । ২য় অভিজ্ঞতা : একদিন পড়াচ্ছিলাম । কথা হচ্ছিল বেশ কিছু ছাত্রীর সাথে । কথা প্রসঙ্গে ছাত্রীরা অভিযোগ করলো তারা জুনিয়র ছাত্রদের দ্বারা ইভটিজিং-এর শিকার হচ্ছেন । আমি বিস্তারিত জানতে চাইলাম । আর কারা জড়িত বিস্তারিত বলতে বল্লাম । আর বলতে না চাইলে লিখিতভাবে অভিযোগ করতে । কিন্তু কেহ করতে রাজি হচ্ছে না । তবে মাত্র দুই জন বসে থাকলো আমার সামনে । স্যার কিছু কথা বলতে চাচ্ছি । আমি বল্লাম : হ্যা বলতে পারো । তারা যা বল্লো তা ভয়াবহ ব্যাপার । এমন কোন দিন নেই তারা ইভটিজিং বা এধরনের গায়ে হাত দেওয়ার ব্যাপার তাদের ক্ষেত্রে ঘটছে না । এক মেয়ে আক্ষেপ করে বলছিলো : স্যার । আমি চারটা টিউশনী করছি । আর এর টাকা দিয়ে পড়তে আসছি । প্রায় দিনই আমার চেয়ে কম বয়সী ছেলে অমুক জায়গায় দাড়িয়ে থাকে । কখনো বালি উড়িয়ে দেয় আমার চোখের দিকে । আমার গায়ের উপর হামলে পড়ে । কখনো গায়ে হাত দেয় । দুরে বসে থাকা ছেলেগুলো হেসে লুটোপুটি খায় । স্যার আমি কি করবো ? আমার তো ভাই । যাকে আমি দেহরক্ষী হিসেবে সাথে নিয়ে পড়তে আসবো । আমার বাবা নেই । মা অসুস্হ । আর অনেকে বলেন, আমরা পোষাক ঠিক ভাবে পড়ি না বলে আমাদের এই অবস্হা হয় । স্যার বলুন, আর কতটুকু পোষাক পড়লে আমরা এই অবস্হা হতে মুক্ত থাকবো । আমি চুপ করেছিলাম । আমার উত্তর জানা ছিল না । মেয়েটি ছিল ভীষণ মেধাবী । আবআয়া আর হিজাব পড়া । তবে মুখ ঢাকা বোরকা পড়া নয় । সে তার কথায় এটাও বলেছিলো মুখ ঢেকে নিজেকে জীবন্ত তাবু বানিয়ে চল্লেও তো আমরা নিরাপদ থাকতে পারবো না । স্যার জানেন তো, অমুক এলাকায় এমন জীবন্ত তাবু মার্কা মেয়ে এদের হামলার শিকার হয়ে অসুস্হ হয়ে মারা গিয়েছিলো । .... আমি আর বিশেষ কিছু লিখছি না ।দয়া করে ভিডিওটা বার বার দেখুন । কীভাবে নিজেদের এধরনের হাত হতে রক্ষা করবেন তা দেখে সিদ্ধান্ত নিন । আর এই কৌশলগুলো আয়ত্ব করুন । আমরা আপনাদের অনুরোদের জন্য ভিডিওগুলো সহজে ডাইনলোড করার জন্য এখন থেকে ডাইনলোড করার জন্য লিংক দিবো । আজকের এই কৌশলটির ভিডিও ডাউনলোড করতে এই লিংকে যেতে পারেন: http://www.mediafire.com/?dabdfchaglqnp0a
Self-defense technique no -31 A Self Defense For Women
This is an educational video for all level of people in our society! Also a message to the people of Bangladesh...একি বললেন হাসিনা পুরুষেরা একটু করলেই দুর্বল হয়ে যায়।নিজ চোখে দেখুন - কিভাবে টাকা বানায় । ইন্ডিয়ার সাথে ম্যাচ শেষে যা বললেন ক্যাপ্টেন মাশরাফি। Dhaka University TSC তে মেয়েদের যৌন হয়রানির প্রতিবাদে কেউ এই অশ্লীল ভিডিওটি দেখবেন স্কুল ছাত্রীর দেহ উপভোগ। বখাটি ছেলেদের কে ধরিয়ে দিন ।সকল বিবাহিতদের জন্য এই ভিডিওটি দেখা বাধ্যতামূলক এই ভিডিও দেখলে আপনি হাঁসতে হাঁসতে মারা যেতে পারেনদুবাই এ মেয়েদের কি চাকরি দেওয়া হয় । নেশা করিয়ে স্কুল ছাত্রীর দেহ উপভোগ। সারা দুনিয়া কাঁপিয়ে বাংলাদেশের একটি গান এখন বিশ্বজুড়ে! কি সেই গান? দেখু যশোরের তমালিকার নাচ (এটাকে ওপেন সেক্স বলবো নাকি অন্য কিছু বলব…চাকরি দেয়ার কথা বলে মেয়েকে গনধর্ষণ ! (ছোটরা দেখবে না).Banglaমেয়ে দিয়ে ছেলেকে জোর পূর্বক শাারীরিক সম্পর্ক, তারপর ভিডিও করে ইন্টারনে ছেলেদের যৌনাঙ্গ কেটে হিজড়া বানানোর অবিশাস্ব্য উপায়, না দেখলে চরম মি…এই মেয়ে বলে কি মাথা ঠিক আছে নাকি যদি আওয়ামীলীগে পায় খবর আছে ।বখাটি ছেলেদের কে ধরিয়ে দিন ।যৌন মিলনের চরম মুহুর্তে মেয়েরা কিভাবে ছেলেদের বীর্যপাত করাতে পারে,যুবতী বান্ধবীর সাথে যৌনমিলন,মেয়েরা যেভাবে হাত দিয়ে হস্তমৈথুন করে দেখুন বাস্তব চিত্র !মেয়েদের যোনি চোষার বিষয়ে কিছু তথ্য,,দেখুন মেয়েদের হস্তমৈথুন কতটা ক্ষতিকর,মেয়েরা যেভাবে হাত দিয়ে হস্তমৈথুন,যুবতী বান্ধবীর সাথে যৌনমিলন,এই শালার পাশী দেওয়া উচিৎ বাংলা চুদাচুদি। Ekusher Chokh (একুশের চোখ ) Bangla crime Documentary,গোপন যৌনাঙ্গ সমস্যা সমাধান, নায়িকা হতে গিয়ে দেহ বিসর্জন,নারী ও নেশার রমরমা ব্যাবসা চলছে মাজার গুলোতে,দেখুন নোয়াখালি কলেজের মেয়ে কি করল। রাতে ঢাকা শহরের দেহ ব্যাবসার রমরমা চিত্র,গোপন যৌনাঙ্গ সমস্যা সমাধান, রূপকথায় আলাদিনের চেরাগের গল্প,মোবাইল কোম্পানীর প্রতারনা, ফকির বাবার আস্তানা,একুশের চোখ শিকল বাবা P2,এনার্জি ড্রিঙ্কসের নেপথ্যে,স্বামী মিশু দ্বারা নিহত,একুশের চোখ রূপকথায় আলাদিনের চেরাগের গল্প,মোবাইল কোম্পানীর প্রতারনা,ফকির বাবার আস্তানা,একুশের চোখ শিকল বাবা P2এনার্জি ড্রিঙ্কসের নেপথ্যে,স্বামী মিশু দ্বারা নিহত,বিভিন্ন কলেজ বিশ্ববিদ্যালয়ের মেয়েরাও জড়াচ্ছেন দেহ ব্যবসায় ভণ্ড বিড়ি বাবা । তার কাছে ৭-৮ দিন থাকলেই নাকি মিলবে সন্তান । একুশের আওয়ামী মন্ত্রীকে সরাসরি বেয়াদব বললেন এই সাহসী মওলানা৷একুশের চোখ (০২/০১/১৪), একুশের চোখ- (১৩/০৯/১৩)New Bangla Waz\
ডাঃ জাকির নায়েক সম্পর্কে মাওলানা দেলোয়ার হোসেন সাইদি
This is an educational video for all level of people in our society! Also a message to the people of Bangladesh...একি বললেন হাসিনা পুরুষেরা একটু করলেই দুর্বল হয়ে যায়।নিজ চোখে দেখুন - কিভাবে টাকা বানায় । ইন্ডিয়ার সাথে ম্যাচ শেষে যা বললেন ক্যাপ্টেন মাশরাফি। Dhaka University TSC তে মেয়েদের যৌন হয়রানির প্রতিবাদে কেউ এই অশ্লীল ভিডিওটি দেখবেন স্কুল ছাত্রীর দেহ উপভোগ। বখাটি ছেলেদের কে ধরিয়ে দিন ।সকল বিবাহিতদের জন্য এই ভিডিওটি দেখা বাধ্যতামূলক এই ভিডিও দেখলে আপনি হাঁসতে হাঁসতে মারা যেতে পারেনদুবাই এ মেয়েদের কি চাকরি দেওয়া হয় । নেশা করিয়ে স্কুল ছাত্রীর দেহ উপভোগ। সারা দুনিয়া কাঁপিয়ে বাংলাদেশের একটি গান এখন বিশ্বজুড়ে! কি সেই গান? দেখু যশোরের তমালিকার নাচ (এটাকে ওপেন সেক্স বলবো নাকি অন্য কিছু বলব…চাকরি দেয়ার কথা বলে মেয়েকে গনধর্ষণ ! (ছোটরা দেখবে না).Banglaমেয়ে দিয়ে ছেলেকে জোর পূর্বক শাারীরিক সম্পর্ক, তারপর ভিডিও করে ইন্টারনে ছেলেদের যৌনাঙ্গ কেটে হিজড়া বানানোর অবিশাস্ব্য উপায়, না দেখলে চরম মি…এই মেয়ে বলে কি মাথা ঠিক আছে নাকি যদি আওয়ামীলীগে পায় খবর আছে ।বখাটি ছেলেদের কে ধরিয়ে দিন ।যৌন মিলনের চরম মুহুর্তে মেয়েরা কিভাবে ছেলেদের বীর্যপাত করাতে পারে,যুবতী বান্ধবীর সাথে যৌনমিলন,মেয়েরা যেভাবে হাত দিয়ে হস্তমৈথুন করে দেখুন বাস্তব চিত্র !মেয়েদের যোনি চোষার বিষয়ে কিছু তথ্য,,দেখুন মেয়েদের হস্তমৈথুন কতটা ক্ষতিকর,মেয়েরা যেভাবে হাত দিয়ে হস্তমৈথুন,যুবতী বান্ধবীর সাথে যৌনমিলন,এই শালার পাশী দেওয়া উচিৎ বাংলা চুদাচুদি। Ekusher Chokh (একুশের চোখ ) Bangla crime Documentary,গোপন যৌনাঙ্গ সমস্যা সমাধান, নায়িকা হতে গিয়ে দেহ বিসর্জন,নারী ও নেশার রমরমা ব্যাবসা চলছে মাজার গুলোতে,দেখুন নোয়াখালি কলেজের মেয়ে কি করল। রাতে ঢাকা শহরের দেহ ব্যাবসার রমরমা চিত্র,গোপন যৌনাঙ্গ সমস্যা সমাধান, রূপকথায় আলাদিনের চেরাগের গল্প,মোবাইল কোম্পানীর প্রতারনা, ফকির বাবার আস্তানা,একুশের চোখ শিকল বাবা P2,এনার্জি ড্রিঙ্কসের নেপথ্যে,স্বামী মিশু দ্বারা নিহত,একুশের চোখ রূপকথায় আলাদিনের চেরাগের গল্প,মোবাইল কোম্পানীর প্রতারনা,ফকির বাবার আস্তানা,একুশের চোখ শিকল বাবা P2এনার্জি ড্রিঙ্কসের নেপথ্যে,স্বামী মিশু দ্বারা নিহত,বিভিন্ন কলেজ বিশ্ববিদ্যালয়ের মেয়েরাও জড়াচ্ছেন দেহ ব্যবসায় ভণ্ড বিড়ি বাবা । তার কাছে ৭-৮ দিন থাকলেই নাকি মিলবে সন্তান । একুশের আওয়ামী মন্ত্রীকে সরাসরি বেয়াদব বললেন এই সাহসী মওলানা৷একুশের চোখ (০২/০১/১৪), একুশের চোখ- (১৩/০৯/১৩)New Bangla Waz\
ইসলামের জন্য ৭০ হাজার গুলি খাব তবুও ইসলাম ছেড়ে দেবনাঃ মৌলানা রাফি বিন মনির
দেখুন ঢাকার ২০টি আসনে বিএনপির প্রার্থী কারা হচ্ছেন,Who is the candidate of BNP's 20 seats in Dhaka? বিএনপি চেয়ারপারসনের ঘনিষ্ঠ একটি সূত্র জানায়, আগামী জাতীয় সংসদ নির্বাচনে যাদেরকে মনোনয়ন দেয়া হবে তাদের ব্যাপারে বিভিন্ন মাধ্যমে খোঁজখবর নেয়া হয়েছে। পাশাপাশি আওয়ামী লীগের সম্ভাব্য প্রার্থী তালিকাও ঘেঁটে দেখা হচ্ছে। সবকিছু বিবেচনা করে বিএনপি চেয়ারপারসন ও সিনিয়র ভাইস চেয়ারম্যান দলের প্রার্থী তালিকা চূড়ান্ত করবেন। সূত্র জানায়, অনেক সময় দেখা গেছে মনোনয়নের শেষ পর্যায়েও প্রার্থী তালিকা পরিবর্তন করা হয়।এদিকে, সবচেয়ে জনপ্রিয় ও গ্রহণযোগ্য প্রার্থীকে খসড়া তালিকায় রাখা হয়েছে ১ নম্বরে। প্রাথমিকভাবে ৩০০ আসনের জন্য ৯ শতাধিক প্রার্থীর তালিকা করেছে বিএনপি। এই তালিকায় চলবে আরো সংযোজন বিয়োজন।ঢাকা জেলার ২০টি আসনে বিএনপি নেতৃত্বাধীন ২০দলীয় জোটের সম্ভাব্য প্রার্থীদের একটি তালিকা পাওয়া গেছে। বিভিন্ন নির্বাচনী এলাকায় যেসব সম্ভাব্য প্রার্থীরা কাজ করছেন তাদের একটি সম্ভাব্য তালিকা নিচে দেওয়া হলো।ঢাকা-১ (দোহার ও নবাবগঞ্জ): ঢাকা জেলা বিএনপির সাধারণ সম্পাদক ও নবাবগঞ্জ উপজেলার বর্তমান চেয়ারম্যান খন্দকার আবু আশফাক।ঢাকা-২ (কেরানীগঞ্জ-কামরাঙ্গীরচর): বিএনপি চেয়ারপারসনের উপদেষ্টা আমানউল্লাহ আমান ও কামরাঙ্গীরচর থানা বিএনপির সভাপতি মনির হোসেন।ঢাকা-৩ (কেরানীগঞ্জ): দলের জাতীয় স্থায়ী কমিটির সদস্য গয়েশ্বর চন্দ্র রায় অথবা, তার মেয়ে বিএনপির প্রান্তিক জনশক্তি উন্নয়নবিষয়ক সহ-সম্পাদক অপর্ণা রায়।ঢাকা-৪ (শ্যামপুর): ঢাকা মহানগর দক্ষিণ বিএনপির সাংগঠনিক সম্পাদক তানভীর আহমেদ রবিন ও জাসাস ঢাকা মহানগর দক্ষিণের সভাপতি জাহাঙ্গীর শিকদার।ঢাকা-৫ (ডেমরা-যাত্রাবাড়ী): সাবেক এমপি সালাউদ্দিন আহমেদ, ঢাকা মহানগর বিএনপির সহ-সভাপতি নবীউল্লাহ নবী, দলের কেন্দ্রীয় গণশিক্ষাবিষয়ক সম্পাদক অধ্যক্ষ সেলিম ভূঁইয়া, বিজেপি’র ভারপ্রাপ্ত মহাসচিব আবদুল মতিন সাউদ ও জাতীয় পার্টি’র (কাজী জাফর) খালেকুজ্জামান চৌধুরী।ঢাকা-৬ (সূত্রাপুর-কোতোয়ালি): বিএনপি চেয়ারপারসন বেগম খালেদা জিয়া, দলের ভাইস চেয়ারম্যান সাদেক হোসেন খোকা অথবা, তার ছেলে ইশরাক হোসেন ও ঢাকা মহানগর দক্ষিণ বিএনপির সাধারণ সম্পাদক কাজী আবুল বাশার।ঢাকা-৭ (লালবাগ-চকবাজার): বিএনপির প্রয়াত সাংগঠনিক সম্পাদক নাসির উদ্দিন আহমেদ পিন্টুর স্ত্রী ও দলের ঢাকা মহানগর দক্ষিণের সহ-সভাপতি নাসিমা আক্তার কল্পনা ও বিএনপির যুব বিষয়ক সহ-সম্পাদক মীর নেওয়াজ আলী নেওয়াজ।ঢাকা-৮ (রমনা): দলের জাতীয় স্থায়ী কমিটির সদস্য মির্জা আব্বাস, ভাইস চেয়ারম্যান মোসাদ্দেক আলী ফালু ও ঢাকা মহানগর দক্ষিণের সভাপতি হাবিব-উন-নবী খান সোহেল।ঢাকা-৯ (মুগদা-সবুজবাগ): জাতীয়তাবাদী মহিলা দলের সভাপতি আফরোজা আব্বাস, মহিলা দলের সাবেক সাধারণ সম্পাদক শিরিন সুলতানা, ঢাকা মহানগর দক্ষিণ বিএনপির সিনিয়র সহ-সভাপতি শামসুল হুদা ও মহানগর দক্ষিণের যুগ্ম সম্পাদক হাবিবুর রশিদ হাবিব।ঢাকা-১০ (ধানমন্ডি-হাজারীবাগ): দলের কেন্দ্রীয় ভাইস চেয়ারম্যান আবদুল মান্নান অথবা, তার জামাতা বিএনপির আন্তর্জাতিক সম্পাদক ব্যারিস্টার নাসির উদ্দিন অসীম ও কেন্দ্রীয় নেতা শেখ রবিউল আলম (রবি)।ঢাকা-১১ (বাড্ডা-ভাটারা): ঢাকা মহানগর উত্তর বিএনপির সভাপতি এম এ কাইয়ূম অথবা, তার স্ত্রী শামীম আরা বেগম।ঢাকা-১২ (তেজাগাঁও): ঢাকা মহানগর উত্তর বিএনপির সহ-সভাপতি সাহাব উদ্দিন ও যুবদল সভাপতি সাইফুল আলম নিরব।ঢাকা-১৩ (মোহম্মদপুর-আদাবর): বিএনপির ভাইস চেয়ারম্যান আবদুল আউয়াল মিন্টু, বিএনপি চেয়াপারসনের উপদেষ্টা আবদুস সালাম, যুগ্ম মহাসচিব মোয়াজ্জেম হোসেন আলাল ও এনপিপি’র মো
দেখুন ঢাকার ২০টি আসনে বিএনপির প্রার্থী কারা হচ্ছেনWho is the candidate of BNP's 20 seats in Dhaka
http://www.nicovideo.jp/watch/sm31931740i do not own this.............ddFormat: MPEG-4Format profile: Base MediaCodec ID: isom (isom/iso2/avc1/mp41)File size : 92.1 MiBDuration: 4 min 18 sOverall bit rate: 2 986 kb/sWriting application : Lavf57.29.101Copyright : xxx - Copyright: SMILEVIDEO_MP4Comment : xxx - Copyright: SMILEVIDEO_MP4VideoID: 1Format: AVCFormat/Info : Advanced Video CodecFormat profile: High@L3.1Format settings : CABAC / 5 Ref FramesFormat settings, CABAC: YesFormat settings, RefFrames: 5 framesCodec ID: avc1Codec ID/Info : Advanced Video CodingDuration: 4 min 18 sBit rate: 2 847 kb/sWidth : 1 280 pixelsHeight: 720 pixelsDisplay aspect ratio: 16:9Frame rate mode : ConstantFrame rate: 30.000 FPSColor space : YUVChroma subsampling: 4:2:0Bit depth : 8 bitsScan type : ProgressiveBits/(Pixel*Frame): 0.103Stream size : 88.0 MiB (96%)Writing library : x264 core 152 r2851 ba24899Encoding settings : cabac=1 / ref=5 / deblock=1:-1:-1 / analyse=0x3:0x113 / me=umh / subme=11 / psy=1 / psy_rd=1.00:0.15 / mixed_ref=1 / me_range=16 / chroma_me=1 / trellis=2 / 8x8dct=1 / cqm=0 / deadzone=21,11 / fast_pskip=0 / chroma_qp_offset=-3 / threads=12 / lookahead_threads=1 / sliced_threads=0 / nr=0 / decimate=0 / interlaced=0 / bluray_compat=0 / constrained_intra=0 / bframes=4 / b_pyramid=2 / b_adapt=2 / b_bias=0 / direct=3 / weightb=1 / open_gop=0 / weightp=2 / keyint=300 / keyint_min=4 / scenecut=40 / intra_refresh=0 / rc_lookahead=60 / rc=2pass / mbtree=1 / bitrate=2847 / ratetol=1.0 / qcomp=0.70 / qpmin=0 / qpmax=69 / qpstep=12 / cplxblur=20.0 / qblur=0.5 / vbv_maxrate=17500 / vbv_bufsize=17500 / nal_hrd=none / filler=0 / ip_ratio=1.40 / aq=1:1.00Color range : LimitedMatrix coefficients : BT.601AudioID: 2Format: AACFormat/Info : Advanced Audio CodecFormat profile: LCCodec ID: mp4a-40-2Duration: 4 min 18 sBit rate mode : ConstantBit rate: 124 kb/sChannel(s): 2 channelsChannel positions : Front: L RSampling rate : 48.0 kHzFrame rate: 46.875 FPS (1024 SPF)Compression mode: LossyStream size : 3.83 MiB (4%)Default : YesAlternate group : 1
【19歳の誕生日に】バレリーコ 踊ってみた【渚こうた】
ছোট মনিদের অসাধারন একটি নাচ, অসাধারন নাচ, নাচ, best dance, best funny dance, অসাধারন প্রতিভা, নাচের ভিডিও, নাচ শিক্ষাbangla funny video, funny, bangla fun, bangla horror prank, bangla new prank video, funny videos, indian funny videos compilation, whatsapp, try not to laugh challenge, 2016, Algeria, Pakistan, Bangladesh, best, funniest video, ytlaugh, laugh, try not to laugh, funny vines, funny videos 2016, funny pranks, funny videos 2017Funny, Song, natok, new, 2016, drama, movie, natok 2016, funny bangla, bangla, fun, funny, video, bangla funny video, bangla short film, bangla model, comedy, fun show, mosharraf karim, mosharraf karim funny video, funny natok, mosharraf karim new natok 2015, mirakkel, Salman muqtadir, salman muqtadir new videos, funny short film, buro shalik, 2015boba mastan bangla natok বাংলা হাসির নাটক বোবা মাস্তান funny short video, boba mastan bangla natok, funny, bangla natok, bangla funny video, natok, natok mosharraf karim 2015 comedy, natok mosharraf karim 2016 comedy, natok 2016, natok bangla new, natok 2016 hd, short film bangla, short film, short hairstyles, short movies, short bus shawtybangla, Mosharraf Karim, Mosarof korim, funny scene, natok, bangla funny, bangla natok, desi funny, bangladeshiBangla Natok, Funny Scene, Mosharraf Karim, Mosarof korim, funny, bangla, bangladeshi natok, natok, laughterSharmin Akter, সাহসী মেয়ে শারমিন, ঝালকাঠি শারমিন, শারমিন, sarmin jhalkathi, sarmin award USA, Sarmin Bangladesh, Bangladeshi girl award, under age marriage, Sharmin Jhalakathi, Sharmin Bangladeshi girl, শারমিন আক্তার, Bangladesh NewsBangla natok, mosharraf karim, funny, comedy, funny video, mosarof korim, natok comedy, bangla, bangladesh, dhakaMosharraf Karim, bangla natok, new natok, mosarof korim, very funny natok, best natok, funny comedy, bangla comedy natokBig Cinema, telugu cinema, tollywood, telugu film industry, telugu movies, telugu films, latest movies, latest films, theatrical trailer, teaser, first look, audio launch, press meet, interview, release, live updates, live news, latest trailer, latest teaser, gossips, awards, function, tour, poster, new, songs, juke box, telugu news, web series, short films, crime, BB Ki Vines, viva, trailer reaction, channel, rating, review, music, episode, full, event, success, makeuphow to, tutorial, android, android mobile, গুপন ভিডিও ফাস মডেল মহনার বাচ্ছারা দূরে তাকবেন, গুপন ভিডিও ফাস, hot, sexy, model, model mohona, very hot, sexxxx, xxx, কিভাবে, কিভাবে কি, গিপন, ভিডিওall, adult video, virat kohli, cricket live, fast track bag, pran, rfl, anuska sarma, photos of anushka, virat kohili photo, virat photo, virat photo hd, virat photo gallery
গ্রামের ছেলের শহর জয় করা নাচ,
ছোট মনিদের অসাধারন একটি নাচ, অসাধারন নাচ, নাচ, best dance, best funny dance, অসাধারন প্রতিভা, নাচের ভিডিও, নাচ শিক্ষাbangla funny video, funny, bangla fun, bangla horror prank, bangla new prank video, funny videos, indian funny videos compilation, whatsapp, try not to laugh challenge, 2016, Algeria, Pakistan, Bangladesh, best, funniest video, ytlaugh, laugh, try not to laugh, funny vines, funny videos 2016, funny pranks, funny videos 2017Funny, Song, natok, new, 2016, drama, movie, natok 2016, funny bangla, bangla, fun, funny, video, bangla funny video, bangla short film, bangla model, comedy, fun show, mosharraf karim, mosharraf karim funny video, funny natok, mosharraf karim new natok 2015, mirakkel, Salman muqtadir, salman muqtadir new videos, funny short film, buro shalik, 2015boba mastan bangla natok বাংলা হাসির নাটক বোবা মাস্তান funny short video, boba mastan bangla natok, funny, bangla natok, bangla funny video, natok, natok mosharraf karim 2015 comedy, natok mosharraf karim 2016 comedy, natok 2016, natok bangla new, natok 2016 hd, short film bangla, short film, short hairstyles, short movies, short bus shawtybangla, Mosharraf Karim, Mosarof korim, funny scene, natok, bangla funny, bangla natok, desi funny, bangladeshiBangla Natok, Funny Scene, Mosharraf Karim, Mosarof korim, funny, bangla, bangladeshi natok, natok, laughterSharmin Akter, সাহসী মেয়ে শারমিন, ঝালকাঠি শারমিন, শারমিন, sarmin jhalkathi, sarmin award USA, Sarmin Bangladesh, Bangladeshi girl award, under age marriage, Sharmin Jhalakathi, Sharmin Bangladeshi girl, শারমিন আক্তার, Bangladesh NewsBangla natok, mosharraf karim, funny, comedy, funny video, mosarof korim, natok comedy, bangla, bangladesh, dhakaMosharraf Karim, bangla natok, new natok, mosarof korim, very funny natok, best natok, funny comedy, bangla comedy natokBig Cinema, telugu cinema, tollywood, telugu film industry, telugu movies, telugu films, latest movies, latest films, theatrical trailer, teaser, first look, audio launch, press meet, interview, release, live updates, live news, latest trailer, latest teaser, gossips, awards, function, tour, poster, new, songs, juke box, telugu news, web series, short films, crime, BB Ki Vines, viva, trailer reaction, channel, rating, review, music, episode, full, event, success, makeuphow to, tutorial, android, android mobile, গুপন ভিডিও ফাস মডেল মহনার বাচ্ছারা দূরে তাকবেন, গুপন ভিডিও ফাস, hot, sexy, model, model mohona, very hot, sexxxx, xxx, কিভাবে, কিভাবে কি, গিপন, ভিডিওall, adult video, virat kohli, cricket live, fast track bag, pran, rfl, anuska sarma, photos of anushka, virat kohili photo, virat photo, virat photo hd, virat photo gallery
Bangla Funny Video Crazy Boy 2016 New.Bangla Funny Natok short film
ছোট মনিদের অসাধারন একটি নাচ, অসাধারন নাচ, নাচ, best dance, best funny dance, অসাধারন প্রতিভা, নাচের ভিডিও, নাচ শিক্ষাbangla funny video, funny, bangla fun, bangla horror prank, bangla new prank video, funny videos, indian funny videos compilation, whatsapp, try not to laugh challenge, 2016, Algeria, Pakistan, Bangladesh, best, funniest video, ytlaugh, laugh, try not to laugh, funny vines, funny videos 2016, funny pranks, funny videos 2017Funny, Song, natok, new, 2016, drama, movie, natok 2016, funny bangla, bangla, fun, funny, video, bangla funny video, bangla short film, bangla model, comedy, fun show, mosharraf karim, mosharraf karim funny video, funny natok, mosharraf karim new natok 2015, mirakkel, Salman muqtadir, salman muqtadir new videos, funny short film, buro shalik, 2015boba mastan bangla natok বাংলা হাসির নাটক বোবা মাস্তান funny short video, boba mastan bangla natok, funny, bangla natok, bangla funny video, natok, natok mosharraf karim 2015 comedy, natok mosharraf karim 2016 comedy, natok 2016, natok bangla new, natok 2016 hd, short film bangla, short film, short hairstyles, short movies, short bus shawtybangla, Mosharraf Karim, Mosarof korim, funny scene, natok, bangla funny, bangla natok, desi funny, bangladeshiBangla Natok, Funny Scene, Mosharraf Karim, Mosarof korim, funny, bangla, bangladeshi natok, natok, laughterSharmin Akter, সাহসী মেয়ে শারমিন, ঝালকাঠি শারমিন, শারমিন, sarmin jhalkathi, sarmin award USA, Sarmin Bangladesh, Bangladeshi girl award, under age marriage, Sharmin Jhalakathi, Sharmin Bangladeshi girl, শারমিন আক্তার, Bangladesh NewsBangla natok, mosharraf karim, funny, comedy, funny video, mosarof korim, natok comedy, bangla, bangladesh, dhakaMosharraf Karim, bangla natok, new natok, mosarof korim, very funny natok, best natok, funny comedy, bangla comedy natokBig Cinema, telugu cinema, tollywood, telugu film industry, telugu movies, telugu films, latest movies, latest films, theatrical trailer, teaser, first look, audio launch, press meet, interview, release, live updates, live news, latest trailer, latest teaser, gossips, awards, function, tour, poster, new, songs, juke box, telugu news, web series, short films, crime, BB Ki Vines, viva, trailer reaction, channel, rating, review, music, episode, full, event, success, makeuphow to, tutorial, android, android mobile, গুপন ভিডিও ফাস মডেল মহনার বাচ্ছারা দূরে তাকবেন, গুপন ভিডিও ফাস, hot, sexy, model, model mohona, very hot, sexxxx, xxx, কিভাবে, কিভাবে কি, গিপন, ভিডিওall, adult video, virat kohli, cricket live, fast track bag, pran, rfl, anuska sarma, photos of anushka, virat kohili photo, virat photo, virat photo hd, virat photo gallery
Couple dance for hangover from DAnce upoon a dream creative academy
ছোট মনিদের অসাধারন একটি নাচ, অসাধারন নাচ, নাচ, best dance, best funny dance, অসাধারন প্রতিভা, নাচের ভিডিও, নাচ শিক্ষাbangla funny video, funny, bangla fun, bangla horror prank, bangla new prank video, funny videos, indian funny videos compilation, whatsapp, try not to laugh challenge, 2016, Algeria, Pakistan, Bangladesh, best, funniest video, ytlaugh, laugh, try not to laugh, funny vines, funny videos 2016, funny pranks, funny videos 2017Funny, Song, natok, new, 2016, drama, movie, natok 2016, funny bangla, bangla, fun, funny, video, bangla funny video, bangla short film, bangla model, comedy, fun show, mosharraf karim, mosharraf karim funny video, funny natok, mosharraf karim new natok 2015, mirakkel, Salman muqtadir, salman muqtadir new videos, funny short film, buro shalik, 2015boba mastan bangla natok বাংলা হাসির নাটক বোবা মাস্তান funny short video, boba mastan bangla natok, funny, bangla natok, bangla funny video, natok, natok mosharraf karim 2015 comedy, natok mosharraf karim 2016 comedy, natok 2016, natok bangla new, natok 2016 hd, short film bangla, short film, short hairstyles, short movies, short bus shawtybangla, Mosharraf Karim, Mosarof korim, funny scene, natok, bangla funny, bangla natok, desi funny, bangladeshiBangla Natok, Funny Scene, Mosharraf Karim, Mosarof korim, funny, bangla, bangladeshi natok, natok, laughterSharmin Akter, সাহসী মেয়ে শারমিন, ঝালকাঠি শারমিন, শারমিন, sarmin jhalkathi, sarmin award USA, Sarmin Bangladesh, Bangladeshi girl award, under age marriage, Sharmin Jhalakathi, Sharmin Bangladeshi girl, শারমিন আক্তার, Bangladesh NewsBangla natok, mosharraf karim, funny, comedy, funny video, mosarof korim, natok comedy, bangla, bangladesh, dhakaMosharraf Karim, bangla natok, new natok, mosarof korim, very funny natok, best natok, funny comedy, bangla comedy natokBig Cinema, telugu cinema, tollywood, telugu film industry, telugu movies, telugu films, latest movies, latest films, theatrical trailer, teaser, first look, audio launch, press meet, interview, release, live updates, live news, latest trailer, latest teaser, gossips, awards, function, tour, poster, new, songs, juke box, telugu news, web series, short films, crime, BB Ki Vines, viva, trailer reaction, channel, rating, review, music, episode, full, event, success, makeuphow to, tutorial, android, android mobile, গুপন ভিডিও ফাস মডেল মহনার বাচ্ছারা দূরে তাকবেন, গুপন ভিডিও ফাস, hot, sexy, model, model mohona, very hot, sexxxx, xxx, কিভাবে, কিভাবে কি, গিপন, ভিডিওall, adult video, virat kohli, cricket live, fast track bag, pran, rfl, anuska sarma, photos of anushka, virat kohili photo, virat photo, virat photo hd, virat photo gallery
আমেরিকায় বীরত্বের পুরস্কার পেলো বাংলার গ্রামের মেয়ে শারমিন
ছোট মনিদের অসাধারন একটি নাচ, অসাধারন নাচ, নাচ, best dance, best funny dance, অসাধারন প্রতিভা, নাচের ভিডিও, নাচ শিক্ষাbangla funny video, funny, bangla fun, bangla horror prank, bangla new prank video, funny videos, indian funny videos compilation, whatsapp, try not to laugh challenge, 2016, Algeria, Pakistan, Bangladesh, best, funniest video, ytlaugh, laugh, try not to laugh, funny vines, funny videos 2016, funny pranks, funny videos 2017Funny, Song, natok, new, 2016, drama, movie, natok 2016, funny bangla, bangla, fun, funny, video, bangla funny video, bangla short film, bangla model, comedy, fun show, mosharraf karim, mosharraf karim funny video, funny natok, mosharraf karim new natok 2015, mirakkel, Salman muqtadir, salman muqtadir new videos, funny short film, buro shalik, 2015boba mastan bangla natok বাংলা হাসির নাটক বোবা মাস্তান funny short video, boba mastan bangla natok, funny, bangla natok, bangla funny video, natok, natok mosharraf karim 2015 comedy, natok mosharraf karim 2016 comedy, natok 2016, natok bangla new, natok 2016 hd, short film bangla, short film, short hairstyles, short movies, short bus shawtybangla, Mosharraf Karim, Mosarof korim, funny scene, natok, bangla funny, bangla natok, desi funny, bangladeshiBangla Natok, Funny Scene, Mosharraf Karim, Mosarof korim, funny, bangla, bangladeshi natok, natok, laughterSharmin Akter, সাহসী মেয়ে শারমিন, ঝালকাঠি শারমিন, শারমিন, sarmin jhalkathi, sarmin award USA, Sarmin Bangladesh, Bangladeshi girl award, under age marriage, Sharmin Jhalakathi, Sharmin Bangladeshi girl, শারমিন আক্তার, Bangladesh NewsBangla natok, mosharraf karim, funny, comedy, funny video, mosarof korim, natok comedy, bangla, bangladesh, dhakaMosharraf Karim, bangla natok, new natok, mosarof korim, very funny natok, best natok, funny comedy, bangla comedy natokBig Cinema, telugu cinema, tollywood, telugu film industry, telugu movies, telugu films, latest movies, latest films, theatrical trailer, teaser, first look, audio launch, press meet, interview, release, live updates, live news, latest trailer, latest teaser, gossips, awards, function, tour, poster, new, songs, juke box, telugu news, web series, short films, crime, BB Ki Vines, viva, trailer reaction, channel, rating, review, music, episode, full, event, success, makeuphow to, tutorial, android, android mobile, গুপন ভিডিও ফাস মডেল মহনার বাচ্ছারা দূরে তাকবেন, গুপন ভিডিও ফাস, hot, sexy, model, model mohona, very hot, sexxxx, xxx, কিভাবে, কিভাবে কি, গিপন, ভিডিওall, adult video, virat kohli, cricket live, fast track bag, pran, rfl, anuska sarma, photos of anushka, virat kohili photo, virat photo, virat photo hd, virat photo gallery
Govt. Azizul Haque College Best Dance Performance Rag Day-2016 -HSC

ছোট একটি কাহিনী আর সবচেয়ে বড় পাপের কথা!পীরানের-পীর দাশ্তগীর আব্দুল কাদির জিলানি(রঃ)নামের ইতিহাস
Pages 1 Of 2
1|2||

Search www ঢাকা*মেয়ে*xxx cqm Photos

Search Videos

Search:

» Catagories

Recent Searches

www ঢাকা*মেয়ে*xxx cqm | কোয়েল। xxx comil acter man full nude | mahyamahy x�ুনি গান | barbi mickey en franÇais | rovin hood en español | dev srabonti x x xবাংল | to com ads mp inc 19 hp | মামির সাথে চুদাচুদি নিয়ে বাংলা চটির গলপ� | বরিশালের মেয়েগ চুদাচুদি � | indiansex videos com | bivaha x x x video鄑�戌鄏擒�鄑�戌鄏� | sakibkhan@29 | english 4gp x x x kom�বিদেশি চুদা চুদি | হট মেয়েদের নগ্ন ছবি��য়ার পিকচার��য়ক সাকিবখান অপু সা | srabonti sd x com�াংলা নায়িকা পপি নেকেট অপুর ছামার ভিতরে মাছুমের ধোন ডুক� | mehndi hassan | bee talk��াহির লেনড়া ছবিা3xvideo��চুদি xvideo downlod016784357627 | pic much | মেয়েদের মাল ফাক করা বোদার ছবি�কা মাহির খারাপ চোদা চুদি ছবি ডাউন | ogdgrkxiave | x4umdc1 | সানি লিওন চোদাচুদির ভিডিও� x x x��ায়িকাদের দুধ ও ভুদার ছবি se x x xংলাদেশি নাইকা মৌসুমির নেংটা ছবি�� নায়িকার নেংটা ছব� | বাংলী গ্রামের মেয়ের সেক্স ভিডিও ডাওনলোড��য়েলমলিক নেকেট ছবি��রাসরিচোদাচুদি x x x photos video downlod www comবিদেশি মেয়েদের নেংটা ছবি¨ উল� | xxx jangal s* | tamil actor hi acto | hindn ��িডিও বাংলা x x x video 2015জোর করে ধরষন বরিশাল মহিলা কলেজের ম�ajal x x x 2015atrina video x x xopera minimasbahbangla video x x xie combd girl vodaoasimভারতের খারাপ ম�¦gla naika mem ar video xbangla song sd robelগ | gkievj ri | www dhakawap com | সোনাকী ছোদাচদি | আরবি সেক্স | নায়েকাদের এক্স পিকছার | cumma | sunny leone x x x hot photo on night in bikini 20�� দেàa movie jadrall��দের �angla dui jibon mp3 katrina original | bangla video full হঠাট | aunties sleeping saree assx video download��তীর সরাসরিচোদাচুদি x x x photos�াংলা দেà��লাদেশী নায়িকাদের বোদা মাহি বৌদাkarena kapoor x x x photoমা ও ছেলের সেক্স ভিডি�koel srabonti katrina original nacket x x x photos�া� | সনিলিয়নের hot video | ইংলিশচুদাচুদিmar kolpona jure by tahsan angry birds natoker mp3 song�ানি লিওন x x x ফট�শী মেয�¦ | sony hat aha | অবিনেতা শাকিব খানের বউ | pakistan national anthem by atif aslam�ৌসুমির চোদাচুদি ভিডিওangladeshi actress somi kawsar hot�ব�� | বাংগালী মেয়ের চুদাচুন বউ চোদার ভিডিও বাংলা x x x video a x x x images�াবনৃর আপু পপি সাহারা পৃনিমা নেংটা ছবি�ারতীয় মেয়েদের চোদা চোদির ছবি�পির | www com the | 09 ekla nibir asif and nancyex hd russianangladeshi musck video��োট ১৮ বছ�� | bf 128*160 | soweta tiwari ingww bangla village x x x video 2015 com��লকাতার দেব ও কোয়েল মল্লিকের চুদাচুদি com��চদি ভিড�bangladeshi school girl new 3 x x xmahi xvideoআচল বাংলাদেশি নায়িকা photost x x x photoক্ | sathi re jeo | porshi xxx video jag | jai din kake pro vi | কচমি সেক | bangla magi x x x x video download�° চুদা চুদি ভিডির 3gp��োর করে মা ছেলে চোদার � | কাজল xxxx com | চাকমা xxx | rjihttwssqc | চুদাচুদিহটww পাখিছবি com | * koyel x x x video ছব�� | বাংলাদেশী নায়িকা পপি com��াংলা মাগীর ভিডিও | xvideos zebra | www suuny leone hotamil kajol x x x hot photo�াংলাদেশের ছোট মেয়েদের দুধ দেখব | http বাংলা চটি গল্প��সর রাতে নতুন বউদে� | santabantacomলাদেশি চুদা চুদি ডট কম xvideo | 爬ャ爬セ爬もヲイ爬セ爬ー 爬ョ爬セ爬伶ヲソ爬ヲ爰爬ー 爬ュ爰金ヲヲ爬セ 爬 爬ヲ爰≒ヲァ 爬鐘ヲー 爬ェ爬セ爬ク爬ソ爬 爬ョ爬セ爬イ 爬ョ爬セ爬 爬 爬ケ爰金ヲイ爬ー 爬ィ爬伶ァ財ヲィ 爬巵ヲャ爬ソ爬セ爬ヲ爰爬カ爰 爬歩ヲ��ヲソ 爬ョ爰爬ッ爬シ爰爬ヲ爰爬ー 爬ク爰金ヲィ爬セ爬ー 爬巵ヲャ爬ソtosソス爬イ爰爬 爬巵ヲセ爬、爰財ヲー爰爬ー 爬ヲ爰≒ヲァ 爬 爬ィ爬セ爬ュ爬ソ爬ー 爬巵ヲャ爬ソ | joya aho�াথিরে খুজি শুধু আমি | কাজিশুভো বিডিও গান | www bangla xvideoa school girls x x x v | আলিফলালা ছবি | opu bishas sobe | চিন দেশের মেয়েদের সেটার ছবিllama abu nasar ashrafee | g]c mp3 comindian villages girl w | লিংগ | sucking ac | big s x | dhat ami to bia kurtis | bangla little girl original nacket x x x photo x n x x com�� বউ চোদার ভিডিও বাংলা x x x video 2015জোর করে ধরষন বরিশাল মহিলা কলেজের ম�ajal x x x 2015atrina video x x xopera minimasbahbangla | junior boys and girds | x4ucp6r | sorry dipannita music | নেগেট চবি এচ বিএপ | ময়ূরী সেকৠস | ye ziqwai e | bangla rap song eve teasing� ছেলের সেক্স ভিডিও | ayna mon vanga mp3 song | ami tomake aro kase pea | asif jaan re mp3 | মামি কে চোদা | * koyel x x x video�স এর চুদা চুদি ���� ছবি হট চটি বাসর রাত�ï�� বিশ্বাস এর এক্স্ | doctor strange movie dormammu vs doctor strange | ban ha casino | patlu banlg | ابراهيم نوراي فنان | bangladeshi model naika boby x x x photos | jodi ek ditto bi | ai she ghor sudhu ma nei monir khan audio songan female news anchor sexy news videodai 3gp videos page 1 xvideos com xvideos indian videos page 1 free nadiya nace hot indian sex diva anna thangachi sex videos free downloadesi randi fuck xxx sexigha hotel mandar moni hotel room girls fuckfarah khan fake unty sex pornhub comajal xnxx sexy hd videoangla sex xxx nxn new married first nigt suhagrat 3gp download on village mother sleeping fuck a boy sex 3gp xxx videosouth indian bcom gp giyawww x x x x vedio comla sobi poramon downloadashi model mim x x x vedioবংলা leone এর নেংটা ভ | মাগী ব� | ami johnson na hoy aka fab mp3 download��াকিখান �¦�� চেরি ওচেরি এক কালে তোর | bangla years school boy aunty fucking mother son dhaka sex come uc | পুনিমা।একচ | অপু বিশাস চুদা চুদি hdladeshi naika all naket photo bd�ুমকা � | nakt vido | bengli swasti full naket x x x�িষিদ্ধ জাএরা ছবিww নেকেট বিডিও ডটকম বাৎলা�ষ্ট মেয়ে মাগির চোদা চুদি খেলা�ংলাদেশী চুদাচুদি ভিডিও বাংলা সেক্স মুভি ছাত্রীunnyleone xvideo�জ আড়ি কাল ভাবww bangladeshi x x x video com�াংলা দেশি নায়কা অপু বিশাস | desi girl impala leon | ভারেত বাংলা ভিডিও xxx | মেয়েদের প্ররসাব করার সময়কার ছবি | chillar party chatte batte video | মৌসুমীর সেক্স ভিডিও পপি হট বাংলা ছব video download ভাইয়ের সাথে চুদাচুদিshridoy khan and parvez songssalman khan ki nanga photoসানি লিয়নের � | bangla movie sujon sokhi katrina | মুনমুন ও অপু খারাপ ছবি | tumi je amr | ভাবির ভুদায় মাল আউটingbanglai school girls x x xclose up kase asar golpo 2015bangladeshi new x x x�া�� | ami boks | দেব কোয়েল চুদা চুদি ছবিলা ছেলের আর মা চোদা চোদি ভিডিও ডাউনলোডিচোদ | মেয়েদের দুধ এবং গুধ ফটো��য়িকা হেপির চোদা চোদি ভিডিওছ | রচনা ব্যার্নাজি নেংটা | মেয়ে মানুষ ও ঘোড়া x ভিডিওngla x x x video | *dhaka x x x video��লেজ ঠর মেয়েদের কাপর খৠ�� | gogaji hindi bhajn vedo | twinkle khanna bedouin com max pat hat xxx download new bangla ful | mbkqlaujadolai school girls x x x video bangladeshall bangla 2xব | পুভা ভিডিও xxxx | হিনদু নায়িকা কোয়েলের চোদাচোদিx photosনতুন বউ চোদার ভিডিও বাংলা x x x video 2015জ | চায়না xxx priya rai x videos com ও ছেলে সেক্স গল্প বা চটি�চটিগল্পangla mp3 song o amar bondu go ciro sati pot cola tumar jonnoe enechi ami mongil valobasa | bangla naika mousumi xxx video mobile 3gp hot school girl sex videospakistani beautiful hijra xxxoffice sex scandalsgril sex video hd downloadaunty samll boy sexindian house owner and collage student forced by sexkannada vanitha vasuwww xxxvideos comodia | srabanti x x x photodeshi girl nakia sabnur naket pictures biswas new x x x hot photo�িদিসিচুদাচুদিাংলা দেশের যুবোতির চোদাচুদি video��দেশি বুলু ফিলিম�াছরিন x x x��ল�¦ | পুরুষেরা কি করলে মহিলাদের সেà | বাংলা গান আধার রাতে চাঁদের আলো ইমরান খান | com movie | baalveer 50��২ বছর ব� | arijit sing is wife | 亦 toki rikbe mp3 w w w com | চাচি কে চোদার বাংলা চোটি গল্প w w w x x x xে নতুন বৌ চোদার �বাসর রাতে মেয়েদ� | new bangladesh prova gp 2015 s | kareena kapoor sax video | dev joda | bangla three stooges funny | www বাংলা দেশি xবিডিও com��ংলা দেশি নায়কা অপু বিশাস এর চুদা চুদি ভিডিও 3gpangali meyeder dud x�োদা দেখা�াংলাxxx মোটা দুধ | বাংলাসাক্স | ১৮ ব� | নাইকা মৌয়রি xxx |

Menu